Braindead S01E04 HDTV x264-LOL[rartv]

seeders: 164
leechers: 8
updated:
Added by z0n3212.58M in TV
Torrent verified. Downloaded 7,526 times.

DownloadFast Safe Anonymous
movies, software, shows...
  • View all BrainDead episodes
  • Episode title: Wake Up Grassroots: The Nine Virtues of Participatory Democracy, and How We Can Keep America Great by Encouraging an Informed Electorate
  • Episode: S01E04
  • Air date: 11 July 2016
  • IMDb link: 4877736
  • TVmaze link: BrainDead
  • Summary:

    A government employee discovers that the cause of the tensions between the two political parties is a race of extraterrestrial insects eating the brains of the politicians.

    Written by MissFitPirate2956 Last edited by TheCheetah, 1 month ago
Available in versions: 1080p720pHDTVWEBRipx265
Braindead S01E04 HDTV x264-LOL[rartv] (Size: 201.23 MB)
  rarbg.com.txt 34 bytes
  braindead.104.hdtv-lol.mkv 201.22 MB
  braindead.104.hdtv-lol.nfo 4.26 KB

Description


https://rarbg.to
Braindead.S01E04.HDTV.x264-LOL[rartv]

image
Screens :

image
Mediainfo :

Video
ID : 1
Format : AVC
Format/Info : Advanced Video Codec
Format profile : [email protected]
Format settings, CABAC : Yes
Format settings, ReFrames : 5 frames
Codec ID : V_MPEG4/ISO/AVC
Duration : 43mn 40s
Bit rate : 532 Kbps
Width : 720 pixels
Height : 404 pixels
Display aspect ratio : 16:9
Frame rate mode : Constant
Frame rate : 23.976 (24000/1001) fps
Color space : YUV
Chroma subsampling : 4:2:0
Bit depth : 8 bits
Scan type : Progressive
Bits/(Pixel*Frame) : 0.076
Stream size : 166 MiB (83%)
Writing library : x264 core 148 r2705 3f5ed56
Encoding settings : cabac=1 / ref=5 / deblock=1:1:1 / analyse=0x3:0x133 / me=umh / subme=9 / psy=1 / psy_rd=1.00:0.00 / mixed_ref=1 / me_range=16 / chroma_me=1 / trellis=2 / 8x8dct=1 / cqm=0 / deadzone=21,11 / fast_pskip=0 / chroma_qp_offset=-2 / threads=16 / lookahead_threads=1 / sliced_threads=0 / nr=0 / decimate=1 / interlaced=0 / bluray_compat=0 / constrained_intra=0 / bframes=3 / b_pyramid=2 / b_adapt=2 / b_bias=0 / direct=3 / weightb=1 / open_gop=0 / weightp=2 / keyint=250 / keyint_min=23 / scenecut=40 / intra_refresh=0 / rc_lookahead=60 / rc=crf / mbtree=1 / crf=19.0 / qcomp=0.60 / qpmin=0 / qpmax=69 / qpstep=4 / ip_ratio=1.40 / aq=1:1.00
Language : English
Default : Yes
Forced : No
Color range : Limited
Matrix coefficients : BT.709

Audio
ID : 2
Format : AAC
Format/Info : Advanced Audio Codec
Format profile : LC
Codec ID : A_AAC
Duration : 43mn 40s
Bit rate : 110 Kbps
Channel(s) : 2 channels
Channel positions : Front: L R
Sampling rate : 48.0 KHz
Frame rate : 46.875 fps (1024 spf)
Compression mode : Lossy
Delay relative to video : 9ms
Stream size : 34.2 MiB (17%)
Default : Yes
Forced : No

Related Torrents

torrent name size files age seed leech

Sharing Widget


Download torrent
201.23 MB
seeders:158
leechers:9
Braindead S01E04 HDTV x264-LOL[rartv]



To share this torrent use the code below and insert it into comments, status messages, forum posts or your signature.

Torrent: Braindead S01E04 HDTV x264-LOL[rartv]

Trackers

tracker name
udp://tracker.openbittorrent.com:80/announce
udp://tracker.publicbt.com:80/announce
udp://tracker.coppersurfer.tk:6969/announce
udp://9.rarbg.me:2710/announce
udp://p4p.arenabg.com:1337/announce
http://tracker.trackerfix.com/announce
udp://9.rarbg.to:2710/announce
udp://tracker.opentrackr.org:1337/announce
µTorrent compatible trackers list

Locations

name
KickassTorrents
Torrent hash: 4B78DE0CF68F7C5C9E6EBD0491DED232C62BB2A5

All Comments

audio
9/10
video
9/10
please, leave only comments related to that torrent
Sign In

audio: 9video: 9
Good quality audio & video. Thanks!
audio: 9video: 9
Thanks for sharing
audio: 9video: 9
all good ta!

User Opinions

Angers4932.82K, thecookiejar22.42K, jc0556703, Lalydia6180, Stunned5583, jesse_neil3351, mholland12342546, Zeus762453, dvshr162435, jskeli860 ... And 86 more
Report a bug Open chat