The Purge Anarchy 2014 720p WEB-DL DD5 1 H264-RARBG

seeders: 3
leechers: 2
updated:
Added by z0n3212.58M in Movies
Torrent verified. Downloaded 3,722 times.

DownloadFast Safe Anonymous
movies, software, shows...
Summary:

A couple is driving home when their car breaks down just as the annual Purge commences. Meanwhile, a police sergeant goes out into the streets to get revenge on the man who killed his son, and a mother and daughter run from their home after assailants destroy it. The five people meet up as they attempt to survive the night in Los Angeles.

Written by omgkitteh9162
The Purge Anarchy 2014 720p WEB-DL DD5 1 H264-RARBG (Size: 3.19 GB)
  rarbg.com.mp4 992.93 KB
  rarbg.com.txt 34 bytes
  The.Purge.Anarchy.2014.720p.WEB-DL.DD5.1.H264-RARBG.mkv 3.18 GB
  The.Purge.Anarchy.2014.720p.WEB-DL.DD5.1.H264-RARBG.nfo 2.57 KB

Description

The.Purge.Anarchy.2014.720p.WEB-DL.DD5.1.H264-RARBG

http://imdb.com/title/tt2975578/

Screens:
image
image
image
image
image
image
image
image
image
image
image
image

Info:

[mediainfo]

Video
ID : 1
Format : AVC
Format/Info : Advanced Video Codec
Format profile : [email protected]
Format settings, CABAC : No
Format settings, ReFrames : 2 frames
Codec ID : V_MPEG4/ISO/AVC
Duration : 1h 43mn
Bit rate : 3 934 Kbps
Width : 1 280 pixels
Height : 532 pixels
Display aspect ratio : 2.40:1
Frame rate mode : Constant
Frame rate : 23.976 fps
Color space : YUV
Chroma subsampling : 4:2:0
Bit depth : 8 bits
Scan type : Progressive
Bits/(Pixel*Frame) : 0.241
Stream size : 2.84 GiB (89%)
Title : The.Purge.Anarchy.2014.720p.WEB-DL.DD5.1.H264-RARBG
Language : English
Default : Yes
Forced : No
Color primaries : BT.709
Transfer characteristics : BT.709
Matrix coefficients : BT.709

Audio
ID : 2
Format : AC-3
Format/Info : Audio Coding 3
Mode extension : CM (complete main)
Format settings, Endianness : Big
Codec ID : A_AC3
Duration : 1h 43mn
Bit rate mode : Constant
Bit rate : 384 Kbps
Channel(s) : 6 channels
Channel positions : Front: L C R, Side: L R, LFE
Sampling rate : 48.0 KHz
Bit depth : 16 bits
Compression mode : Lossy
Stream size : 284 MiB (9%)
Language : English
Default : Yes
Forced : No



[/mediainfo]

Notes:
Greetz to everyone :)

Related Torrents

torrent name size files age seed leech

Sharing Widget


Download torrent
3.19 GB
seeders:3
leechers:2
The Purge Anarchy 2014 720p WEB-DL DD5 1 H264-RARBG



To share this torrent use the code below and insert it into comments, status messages, forum posts or your signature.

Torrent: The Purge Anarchy 2014 720p WEB-DL DD5 1 H264-RARBG

Trackers

tracker name
udp://tracker.openbittorrent.com:80/announce
udp://9.rarbg.com:2710/announce
udp://9.rarbg.me:2710/announce
udp://open.demonii.com:1337/announce
udp://tracker.publicbt.com:80/announce
udp://tracker.istole.it:80/announce
udp://12.rarbg.me:80/announce
udp://11.rarbg.me:80/announce
http://tracker.trackerfix.com/announce
udp://10.rarbg.me:80/announce
µTorrent compatible trackers list

Locations

name
KickassTorrents
ThePirateBay
Torrent hash: 555DDAA4593B93A740794BAFD20730B3932C8293

All Comments

audio
7/10
video
9/10
please, leave only comments related to that torrent
Sign In

Very annoying sound. Good picture. Thanks
audio: 5video: 9
Great quality video unfortunately the audio doesnt match.
audio: 7video: 9
The audio seemed thin an tinny to me, even after adjusting my sound bar. On 3 occasions Russian subs appeared (usually when characters had the TV on and the TV was the primary focus) but it was brief and didn't take away from the picture. Otherwise, the picture quality was excellent. Overall, the quality is great. Thank you.
audio: 9video: 10
Excellent quality. Thank you.

User Opinions

D3K011.91K, nst20008095, muha74481, BuSalman1454, SAMBHRANT1260, Rosa.ml1165, DanteCZ858, timfs.smile799, ilialazerson519, sig50280 ... And 15 more
deecasey633, MadKidd439
Report a bug Open chat